Кокаиновый барон / Running with the Devil (Джейсон Кэбелл) [2019 г., Триллер, драма, криминал, WEB-DL 1080p] Лицензия

Автор Сообщение
rastor ®

Стаж: 11 лет
Сообщений: 4223

Создавать темы rastor ® написал(а)
05-Ноя-2019 09:24
Кокаиновый баронRunning with the Devil Год выпуска: 2019
Страна: Колумбия, США
Жанр: Триллер, драма, криминал
Продолжительность: 01:32:10
Перевод: Профессиональный (полное дублирование)
Субтитры: Русские (форс.)-Режиссер: Джейсон Кэбелл-В ролях: Николас Кейдж, Лоуренс Фишборн, Бэрри Пеппер, Коул Хаузер, Лесли Бибб, Питер Фачинелли, Клифтон Коллинз мл., Адам Голдберг, Наталия Рейес, Тейт Флетчер-Описание: Груз кокаина следует из Мексики через США в Канаду. Когда партия не достигает цели, лидер картеля Босс посылает своих верных помощников - Повара и Мужика - разобраться, как работает сеть поставщиков.--Качество: WEB-DL 1080p
Формат: MKV
Видео кодек: H.264
Аудио кодек: AC3
Видео: 1920x806 24fps 4442kbps
Аудио: 48kHz 6ch 384kbps

MediaInfo

Полное имя : Кокаиновый барон. mkv
Формат : Matroska
Версия формата : Version 4 / Version 2
Размер файла : 3,17 Гбайт
Продолжительность : 1 ч. 32 м.
Общий поток : 4924 Кбит/сек
Название фильма : Кокаиновый барон
Дата кодирования : UTC 2019-11-04 21:12:57
Программа кодирования : mkvmerge v22.0.0 ('At The End Of The World') 64-bit
Библиотека кодирования : libebml v1.3.5 + libmatroska v1.4.8
DURATION : 01:32:10.048000000
NUMBER_OF_FRAMES : 172814
NUMBER_OF_BYTES : 265442304
_STATISTICS_WRITING_APP : mkvmerge v22.0.0 ('At The End Of The World') 64-bit
_STATISTICS_WRITING_DATE_UTC : 2019-11-04 21:12:57
_STATISTICS_TAGS : BPS DURATION NUMBER_OF_FRAMES NUMBER_OF_BYTES
Видео
Идентификатор : 1
Формат : AVC
Формат/Информация : Advanced Video Codec
Профиль формата : High@L4.0
Параметр CABAC формата : Да
Параметр ReFrames формата : 5 кадров
Идентификатор кодека : V_MPEG4/ISO/AVC
Продолжительность : 1 ч. 32 м.
Битрейт : 4442 Кбит/сек
Ширина : 1920 пикселей
Высота : 806 пикселей
Соотношение сторон : 2,40:1
Режим частоты кадров : Постоянный
Частота кадров : 24,000 кадра/сек
Цветовое пространство : YUV
Субдискретизация насыщенности : 4:2:0
Битовая глубина : 8 бит
Тип развёртки : Прогрессивная
Бит/(Пиксели*Кадры) : 0.120
Размер потока : 2,86 Гбайт (90%)
Язык : English
Default : Да
Forced : Нет
Основные цвета : BT.709
Характеристики трансфера : BT.709
Коэффициенты матрицы : BT.709
Аудио
Идентификатор : 2
Формат : AC-3
Формат/Информация : Audio Coding 3
Расширение режима : CM (complete main)
Параметр Endianness формата : Big
Идентификатор кодека : A_AC3
Продолжительность : 1 ч. 32 м.
Вид битрейта : Постоянный
Битрейт : 384 Кбит/сек
Каналы : 6 каналов
Расположение каналов : Front: L C R, Side: L R, LFE
Частота : 48,0 КГц
Битовая глубина : 16 бит
Метод сжатия : С потерями
Размер потока : 253 Мбайт (8%)
Заголовок : iTunes
Язык : Russian
Default : Да
Forced : Да
Меню
00:00:00.000 : en:Глава 1
00:02:11.166 : en:Глава 2
00:07:19.041 : en:Глава 3
00:15:46.749 : en:Глава 4
00:20:53.457 : en:Глава 5
00:27:23.165 : en:Глава 6
00:37:20.623 : en:Глава 7
00:44:46.873 : en:Глава 8
00:54:06.206 : en:Глава 9
01:02:02.622 : en:Глава 10
01:10:27.747 : en:Глава 11
01:18:08.163 : en:Глава 12
01:24:12.996 : en:Глава 13
Профиль  ЛС 
Показать сообщения:     

Вы не можете начинать темы
Вы не можете отвечать на сообщения
Вы не можете редактировать свои сообщения
Вы не можете удалять свои сообщения
Вы не можете голосовать в опросах
Вы не можете прикреплять файлы к сообщениям
Вы не можете скачивать файлы

Текущее время: 18-Ноя 11:08
Часовой пояс: UTC + 5