Тайна печати дракона (Олег Степченко) [2019 г., Приключения, WEBRip 1080p] Dub

Автор Сообщение
rastor ®

Стаж: 11 лет
Сообщений: 4223

Создавать темы rastor ® написал(а)
04-Ноя-2019 06:35
Тайна печати дракона Год выпуска: 2019
Страна: Россия, Китай
Жанр: Приключения
Продолжительность: 01:54:27
Перевод: Профессиональный (полное дублирование)
Cубтитры: Русские (форс. вшитые)-Режиссер: Олег Степченко-В ролях: Джейсон Флеминг, Арнольд Шварценеггер, Чарльз Дэнс, Джеки Чан, Яо Синтун, Кристофер Фэйрбэнк, Рутгер Хауэр, Мартин Клебба, Юрий Колокольников, Павел Воля-Описание: Английский путешественник Джонатан Грин получает от Петра I заказ на изготовление карт Дальнего Востока России. Ему вновь предстоит долгий путь, полный невероятных приключений, который приведет его в Китай. Картограф столкнется с массой головокружительных открытий, неожиданных встреч с диковинными существами, китайскими принцессами, мастерами смертоносных боевых искусств и самим Лун-Ван, Царем всех драконов. Что может быть опаснее, чем посмотреть в глаза Вию? Разве что встретиться с ним вновь. Что на этот раз окажется сильнее — непоколебимый скептицизм ученого или древняя черная магия, уже давно захватившая власть в Восточных землях?--Качество: WEBRip 1080p
Формат: MKV
Видео кодек: H.264
Аудио кодек: AAC
Видео: 1920x1080 25fps 4199Kbps
Аудио: 48kHz 2ch 160Kbps

MediaInfo

Формат : Matroska
Версия формата : Version 4 / Version 2
Размер файла : 3,49 Гбайт
Продолжительность : 1 ч. 54 м.
Общий поток : 4362 Кбит/сек
Дата кодирования : UTC 2019-11-03 16:02:36
Программа кодирования : mkvmerge v9.5.0 ('Quiet Fire') 64bit
Библиотека кодирования : libebml v1.3.4 + libmatroska v1.4.5
Видео
Идентификатор : 1
Формат : AVC
Формат/Информация : Advanced Video Codec
Профиль формата : High@L4
Настройки формата : CABAC / 4 Ref Frames
Параметр CABAC формата : Да
Параметр RefFrames формата : 4 кадра
Идентификатор кодека : V_MPEG4/ISO/AVC
Продолжительность : 1 ч. 54 м.
Битрейт : 4199 Кбит/сек
Ширина : 1920 пикселей
Высота : 1080 пикселей
Соотношение сторон : 16:9
Режим частоты кадров : Постоянный
Частота кадров : 25,000 кадров/сек
Цветовое пространство : YUV
Субдискретизация насыщенности : 4:2:0
Битовая глубина : 8 бит
Тип развёртки : Прогрессивная
Бит/(Пиксели*Кадры) : 0.081
Размер потока : 3,36 Гбайт (96%)
Язык : Russian
Default : Да
Forced : Нет
Цветовой диапазон : Limited
Основные цвета : BT.709
Характеристики трансфера : BT.709
Коэффициенты матрицы : BT.709
Аудио
Идентификатор : 2
Формат : AAC
Формат/Информация : Advanced Audio Codec
Профиль формата : LC
Идентификатор кодека : A_AAC-2
Продолжительность : 1 ч. 54 м.
Битрейт : 160 Кбит/сек
Каналы : 2 канала
Расположение каналов : Front: L R
Частота : 48,0 КГц
Частота кадров : 46,875 кадров/сек (1024 SPF)
Метод сжатия : С потерями
Задержка видео : 5 мс.
Размер потока : 131 Мбайт (4%)
Язык : Russian
Default : Да
Forced : Нет
Профиль  ЛС 
LOWRIDER202

Стаж: 9 лет
Сообщений: 179
Откуда: MEXICO

Создавать темы LOWRIDER202 написал(а)
06-Ноя-2019 19:35 (спустя 2 дня 13 часов)
Так себе. Первая часть интереснее. На следующий год будет 3-я часть.
Профиль  ЛС 
Kuzin

Стаж: 11 лет
Сообщений: 64

Создавать темы Kuzin написал(а)
08-Ноя-2019 02:20 (спустя 1 день 6 часов)
5304454Так себе. Первая часть интереснее. На следующий год будет 3-я часть.
Что за первая часть? Что за фильм?
Профиль  ЛС 
Vimp

Стаж: 4 года 4 месяца
Сообщений: 3

Создавать темы Vimp написал(а)
08-Ноя-2019 16:42 (спустя 14 часов)
5304548
5304454Так себе. Первая часть интереснее. На следующий год будет 3-я часть.
Что за первая часть? Что за фильм?
Вий
Профиль  ЛС 
Vimp

Стаж: 4 года 4 месяца
Сообщений: 3

Создавать темы Vimp написал(а)
08-Ноя-2019 16:42 (спустя 8 секунд)
5304548
5304454Так себе. Первая часть интереснее. На следующий год будет 3-я часть.
Что за первая часть? Что за фильм?
Вий
Профиль  ЛС 
Показать сообщения:     

Вы не можете начинать темы
Вы не можете отвечать на сообщения
Вы не можете редактировать свои сообщения
Вы не можете удалять свои сообщения
Вы не можете голосовать в опросах
Вы не можете прикреплять файлы к сообщениям
Вы не можете скачивать файлы

Текущее время: 18-Ноя 11:52
Часовой пояс: UTC + 5