Angry Birds 2 в кино / The Angry Birds Movie 2 (Туроп Ван Орман, Джон Райс) [2019 г., Мультфильм, комедия, приключения, семейный, полнометражный, BDRip 1080p] Лицензия

Автор Сообщение
rastor ®

Стаж: 11 лет
Сообщений: 4227

Создавать темы rastor ® написал(а)
31-Окт-2019 00:04
Angry Birds 2 в киноThe Angry Birds Movie 2 Год выпуска: 2019
Страна: США, Финляндия
Жанр: Мультфильм, комедия, приключения, семейный, полнометражный
Продолжительность: 01:36:47
Перевод: Профессиональный (полное дублирование)
Cубтитры: Русские, украинские, английские-Режиссер: Туроп Ван Орман, Джон Райс-В ролях: Аквафина, Дав Кэмерон, Билл Хэйдер, Дэнни Макбрайд, Питер Динклэйдж, Тиффани Хэддиш, Майя Рудольф, Джейсон Судейкис, Стерлинг К. Браун, Эухенио Дербес, Джош Гэд, Лесли Джонс, Рэйчел Блум-Описание: Птицы узнали о существовании голодных зелёных свиней, после чего началась священная война, которая длилась многие годы. Однако теперь на горизонте появился новый враг - Зета, обитательница третьего, замёрзшего острова. Она считает, что все должны почувствовать на себе силу холода, и начинает атаку на дальних родственников, обитающих в тёплых краях. Теперь птицы и свиньи должны объединиться, чтобы остановить заморозки.--Качество: BDRip 1080p
Формат: MKV
Видео кодек: H.264
Аудио кодек: AC3
Видео: 1920x1038 23.98fps 11468Kbps
Аудио:
Аудио Rus: 48kHz 6ch 384Kbps
Аудио Ukr: 48kHz 2ch 160Kbps
Аудио Eng: 48kHz 6ch 640Kbps

MediaInfo

Format : Matroska
Format version : Version 4
File size : 8.38 GiB
Duration : 1 h 36 min
Overall bit rate : 12.4 Mb/s
Movie name : The Angry Birds Movie 2 2019 from селезень
Encoded date : UTC 2019-10-30 18:29:50
Writing application : mkvmerge v22.0.0 ('At The End Of The World') 64-bit
Writing library : libebml v1.3.5 + libmatroska v1.4.8
Video
ID : 1
Format : AVC
Format/Info : Advanced Video Codec
Format profile : High@L4.1
Format settings : CABAC / 4 Ref Frames
Format settings, CABAC : Yes
Format settings, Reference : 4 frames
Codec ID : V_MPEG4/ISO/AVC
Duration : 1 h 36 min
Bit rate : 11.2 Mb/s
Width : 1 920 pixels
Height : 1 038 pixels
Display aspect ratio : 1.85:1
Frame rate mode : Constant
Frame rate : 23.976 (24000/1001) FPS
Color space : YUV
Chroma subsampling : 4:2:0
Bit depth : 8 bits
Scan type : Progressive
Bits/(Pixel*Frame) : 0.235
Stream size : 7.58 GiB (90%)
Title : CHD
Writing library : x264 core 157 r2867+150 7e91e0e t_mod_Custom_2 [8-bit@all X86_64]
Encoding settings : cabac=1 / ref=4 / deblock=1:-3:-3 / analyse=0x3:0x133 / me=umh / subme=11 / psy=1 / fade_compensate=0.00 / psy_rd=0.90:0.10 / mixed_ref=1 / me_range=64 / chroma_me=1 / trellis=2 / 8x8dct=1 / cqm=0 / deadzone=21,11 / fast_pskip=0 / chroma_qp_offset=-4 / threads=32 / lookahead_threads=5 / sliced_threads=0 / nr=0 / decimate=1 / interlaced=0 / bluray_compat=0 / constrained_intra=0 / fgo=0 / bframes=8 / b_pyramid=2 / b_adapt=2 / b_bias=0 / direct=3 / weightb=1 / open_gop=0 / weightp=2 / keyint=250 / keyint_min=23 / scenecut=40 / intra_refresh=0 / rc_lookahead=60 / rc=crf / mbtree=0 / crf=18.0000 / qcomp=0.70 / qpmin=0:0:0 / qpmax=69:69:69 / qpstep=4 / vbv_maxrate=35000 / vbv_bufsize=35000 / crf_max=0.0 / nal_hrd=none / filler=0 / ip_ratio=1.40 / pb_ratio=1.30 / aq=3:1.00 / aq-sensitivity=10.00 / aq-factor=1.00:1.00:1.00 / aq2=0 / aq3=0
Language : English
Default : Yes
Forced : No
Audio #1
ID : 2
Format : AC-3
Format/Info : Audio Coding 3
Commercial name : Dolby Digital
Codec ID : A_AC3
Duration : 1 h 36 min
Bit rate mode : Constant
Bit rate : 384 kb/s
Channel(s) : 6 channels
Channel layout : L R C LFE Ls Rs
Sampling rate : 48.0 kHz
Frame rate : 31.250 FPS (1536 SPF)
Bit depth : 16 bits
Compression mode : Lossy
Stream size : 266 MiB (3%)
Title : iTunes
Language : Russian
Service kind : Complete Main
Default : Yes
Forced : Yes
Audio #2
ID : 3
Format : AC-3
Format/Info : Audio Coding 3
Commercial name : Dolby Digital
Codec ID : A_AC3
Duration : 1 h 36 min
Bit rate mode : Constant
Bit rate : 160 kb/s
Channel(s) : 2 channels
Channel layout : L R
Sampling rate : 48.0 kHz
Frame rate : 31.250 FPS (1536 SPF)
Bit depth : 16 bits
Compression mode : Lossy
Stream size : 111 MiB (1%)
Title : iTunes
Language : Ukrainian
Service kind : Complete Main
Default : No
Forced : No
Audio #3
ID : 4
Format : AC-3
Format/Info : Audio Coding 3
Commercial name : Dolby Digital
Codec ID : A_AC3
Duration : 1 h 36 min
Bit rate mode : Constant
Bit rate : 640 kb/s
Channel(s) : 6 channels
Channel layout : L R C LFE Ls Rs
Sampling rate : 48.0 kHz
Frame rate : 31.250 FPS (1536 SPF)
Bit depth : 16 bits
Compression mode : Lossy
Stream size : 443 MiB (5%)
Title : Original
Language : English
Service kind : Complete Main
Default : No
Forced : No
Text #1
ID : 5
Format : UTF-8
Codec ID : S_TEXT/UTF8
Codec ID/Info : UTF-8 Plain Text
Duration : 1 h 36 min
Bit rate : 0 b/s
Count of elements : 16
Stream size : 561 Bytes (0%)
Title : Forced
Language : Russian
Default : Yes
Forced : Yes
Text #2
ID : 6
Format : UTF-8
Codec ID : S_TEXT/UTF8
Codec ID/Info : UTF-8 Plain Text
Duration : 1 h 36 min
Bit rate : 88 b/s
Count of elements : 1374
Stream size : 62.4 KiB (0%)
Title : Full
Language : Russian
Default : No
Forced : No
Text #3
ID : 7
Format : UTF-8
Codec ID : S_TEXT/UTF8
Codec ID/Info : UTF-8 Plain Text
Duration : 1 h 36 min
Bit rate : 86 b/s
Count of elements : 1373
Stream size : 61.1 KiB (0%)
Title : Full
Language : Ukrainian
Default : No
Forced : No
Text #4
ID : 8
Format : UTF-8
Codec ID : S_TEXT/UTF8
Codec ID/Info : UTF-8 Plain Text
Duration : 1 h 27 min
Bit rate : 67 b/s
Count of elements : 1322
Stream size : 43.4 KiB (0%)
Title : Full
Language : English
Default : No
Forced : No
Text #5
ID : 9
Format : UTF-8
Codec ID : S_TEXT/UTF8
Codec ID/Info : UTF-8 Plain Text
Duration : 1 h 34 min
Bit rate : 80 b/s
Count of elements : 1759
Stream size : 56.0 KiB (0%)
Title : SDH
Language : English
Default : No
Forced : No
Menu
00:00:00.000 : en:Chapter 01
00:05:19.486 : en:Chapter 02
00:12:05.892 : en:Chapter 03
00:18:52.673 : en:Chapter 04
00:24:11.867 : en:Chapter 05
00:28:46.683 : en:Chapter 06
00:34:48.461 : en:Chapter 07
00:40:10.158 : en:Chapter 08
00:47:10.828 : en:Chapter 09
00:52:56.382 : en:Chapter 10
00:58:04.690 : en:Chapter 11
01:04:36.122 : en:Chapter 12
01:09:55.650 : en:Chapter 13
01:15:40.286 : en:Chapter 14
01:21:11.116 : en:Chapter 15
01:26:26.848 : en:Chapter 16
Профиль  ЛС 
Показать сообщения:     

Вы не можете начинать темы
Вы не можете отвечать на сообщения
Вы не можете редактировать свои сообщения
Вы не можете удалять свои сообщения
Вы не можете голосовать в опросах
Вы не можете прикреплять файлы к сообщениям
Вы не можете скачивать файлы

Текущее время: 19-Ноя 17:42
Часовой пояс: UTC + 5