Бэтвумен / Batwoman / Сезон: 01 / Серии: 01-06 из 13 (Маркос Сига, Лаура Белси) [2019 г., фантастика, боевик, драма, криминал, приключения, WEB-DL 1080p] MVO (LostFilm) + Original

Автор Сообщение
Hobbit ®

Стаж: 10 лет
Сообщений: 579
Откуда: г. Уфа

Создавать темы Hobbit ® написал(а)
26-Окт-2019 18:22
-Бэтвумен / Batwoman
1 сезон / Серии: 01-06 из 13
- Год выпуска: 2019
Страна: США
Жанр: фантастика, боевик, драма, криминал, приключения
Продолжительность: 6 из 13 серий по ~ 00:43:00-Перевод: Профессиональный (многоголосый закадровый) LostFilm-Субтитры: Русские (Forced), Английские (SDH)- -Режиссёр: Маркос Сига, Лаура Белси
В ролях: Элизабет Анвейс, Сэм Литтлфилд, Руби Роуз, Брендон Заб, Рэйчел Скарстен, Дюгрей Скотт, Роджер Уиггинс, Джота Тракас, Камрус Джонсон, Меган Тенди, Такая Уайт, Джулиан Пол, Крис Шилдс, Николь Кан, Николас Дохи, Дакота Долби-Описание:-Кэти Кейн - дочь владельца частной охранной компании, которую с позором выгнали из армии. Она возвращается в родной Готэм, лишенный защиты Бэтмена - Тёмный рыцарь пропал без следа три года назад. Пока в городе орудует жестокая банда, Кэти при поддержке гениального Люка Фокса вынуждена взять на себя защиту невинных и стать Бэтвумен.

Техданные

  • Работа со звуком LostFilm: itunestv@eniahd
  • Качество: WEB-DL 1080p
  • Формат: MKV
  • Видео: 1920x1080 at 23.976 fps, MPEG-4 AVC, ~6100 kbps avg
  • Аудио#1: Russian: 48 kHz, E-AC3/DD+, 3/2 (L,C,R,l,r) + LFE ch, ~640.00 kbps avg
  • Аудио#2: Russian: 48 kHz, AC3, 3/2 (L,C,R,l,r) + LFE ch, ~384.00 kbps avg
  • Аудио#3: English: 48 kHz, E-AC3/DD+, 3/2 (L,C,R,l,r) + LFE ch, ~640.00 kbps avg

Список серий

01. Пилот | Pilot
02. The Rabbit Hole / Кроличья нора
03. Down, Down, Down / Вниз, вниз, вниз
04. Кто ты? | Who Are You?
05. Моя длинная и печальная сказка | Mine Is a Long and Sad Tale
06. Я и судья, я и присяжный | I'll Be Judge, I'll Be Jury

MediaInfo

General
Unique ID : 129292152758648633929255478481753156073 (0x6144C34A9C4E9A9AE19803EDBC2B29E9)
Complete name : Batwoman.S01E01.Pilot.1080p.AMZN.WEB-DL.H.264.RUS.LF.DDP5.1-EniaHD.mkv
Format : Matroska
Format version : Version 4
File size : 2.94 GiB
Duration : 42 min 25 s
Overall bit rate : 9 912 kb/s
Movie name : Batwoman, Season 1 / Pilot
Track name/Position : 1
Track name/Total : 13
Description : Armed with a passion for social justice and a flair for speaking her mind, Kate Kane soars through the shadowed streets of Gotham as Batwoman in the series premiere.
Released date : 2019-10-06T07:00:00Z
Writing application : mkvmerge v40.0.0 ('Old Town Road + Pony') 64-bit
Writing library : libebml v1.3.9 + libmatroska v1.5.2
Cover : Yes
Attachments : small_cover.jpg / cover.jpg
Video
ID : 1
Format : AVC
Format/Info : Advanced Video Codec
Format profile : High@L4
Format settings : CABAC / 4 Ref Frames
Format settings, CABAC : Yes
Format settings, ReFrames : 4 frames
Codec ID : V_MPEG4/ISO/AVC
Duration : 42 min 25 s
Bit rate mode : Constant
Bit rate : 8 243 kb/s
Nominal bit rate : 10 000 kb/s
Width : 1 920 pixels
Height : 960 pixels
Display aspect ratio : 2.000
Frame rate mode : Constant
Frame rate : 23.976 (24000/1001) FPS
Color space : YUV
Chroma subsampling : 4:2:0
Bit depth : 8 bits
Scan type : Progressive
Bits/(Pixel*Frame) : 0.187
Stream size : 2.44 GiB (83%)
Language : English
Default : Yes
Forced : No
Color range : Limited
Color primaries : BT.709
Transfer characteristics : BT.709
Matrix coefficients : BT.709
Audio #1
ID : 2
Format : E-AC-3
Format/Info : Enhanced AC-3
Commercial name : Dolby Digital Plus
Codec ID : A_EAC3
Duration : 42 min 25 s
Bit rate mode : Constant
Bit rate : 640 kb/s
Channel(s) : 6 channels
Channel layout : L R C LFE Ls Rs
Sampling rate : 48.0 kHz
Frame rate : 31.250 FPS (1536 SPF)
Compression mode : Lossy
Stream size : 194 MiB (6%)
Title : E-AC3 5.1 @ 640kbps - MVO, Lostfilm
Language : Russian
Service kind : Complete Main
Default : Yes
Forced : No
Released date : 2019-10-09T22:08:52Z
Audio #2
ID : 3
Format : AC-3
Format/Info : Audio Coding 3
Commercial name : Dolby Digital
Codec ID : A_AC3
Duration : 42 min 25 s
Bit rate mode : Constant
Bit rate : 384 kb/s
Channel(s) : 6 channels
Channel layout : L R C LFE Ls Rs
Sampling rate : 48.0 kHz
Frame rate : 31.250 FPS (1536 SPF)
Bit depth : 16 bits
Compression mode : Lossy
Stream size : 117 MiB (4%)
Title : AC3 5.1 @ 384kbps - MVO, Lostfilm
Language : Russian
Service kind : Complete Main
Default : No
Forced : No
Released date : 2019-10-09T22:08:52Z
Audio #3
ID : 4
Format : E-AC-3
Format/Info : Enhanced AC-3
Commercial name : Dolby Digital Plus
Codec ID : A_EAC3
Duration : 42 min 25 s
Bit rate mode : Constant
Bit rate : 640 kb/s
Channel(s) : 6 channels
Channel layout : L R C LFE Ls Rs
Sampling rate : 48.0 kHz
Frame rate : 31.250 FPS (1536 SPF)
Compression mode : Lossy
Stream size : 194 MiB (6%)
Title : E-AC3 5.1 @ 640kbps - Original
Language : English
Service kind : Complete Main
Default : No
Forced : No
Text #1
ID : 5
Format : PGS
Muxing mode : zlib
Codec ID : S_HDMV/PGS
Codec ID/Info : Picture based subtitle format used on BDs/HD-DVDs
Duration : 39 min 46 s
Bit rate : 5 253 b/s
Count of elements : 61
Stream size : 1.49 MiB (0%)
Title : Forced
Language : Russian
Default : Yes
Forced : Yes
Text #2
ID : 6
Format : UTF-8
Codec ID : S_TEXT/UTF8
Codec ID/Info : UTF-8 Plain Text
Duration : 42 min 8 s
Bit rate : 63 b/s
Count of elements : 699
Stream size : 19.6 KiB (0%)
Title : SDH
Language : English
Default : No
Forced : No

Скриншоты



Последний раз редактировалось: Hobbit (Вчера, в 15:55), всего редактировалось 8 раз(а)
Профиль  ЛС 
Hobbit ®

Стаж: 10 лет
Сообщений: 579
Откуда: г. Уфа

Создавать темы Hobbit ® написал(а)
30-Окт-2019 00:44 (спустя 3 дня)
del


Последний раз редактировалось: Hobbit (2019-11-08 10:18), всего редактировалось 1 раз
Профиль  ЛС 
Hobbit ®

Стаж: 10 лет
Сообщений: 579
Откуда: г. Уфа

Создавать темы Hobbit ® написал(а)
02-Ноя-2019 18:31 (спустя 3 дня)
Обновление:
  • Замена оригинальной дорожки в 4 серии.


Последний раз редактировалось: Hobbit (2019-11-08 10:18), всего редактировалось 1 раз
Профиль  ЛС 
Hobbit ®

Стаж: 10 лет
Сообщений: 579
Откуда: г. Уфа

Создавать темы Hobbit ® написал(а)
05-Ноя-2019 11:14 (спустя 2 дня 16 часов)
Обновление:
  • Добавлена 5 серия "Моя длинная и печальная сказка | Mine Is a Long and Sad Tale".
Профиль  ЛС 
Hobbit ®

Стаж: 10 лет
Сообщений: 579
Откуда: г. Уфа

Создавать темы Hobbit ® написал(а)
14-Ноя-2019 21:26 (спустя 9 дней)
Обновление:
  • Добавлена 6 серия "Я и судья, я и присяжный | I'll Be Judge, I'll Be Jury".
Профиль  ЛС 
Hobbit ®

Стаж: 10 лет
Сообщений: 579
Откуда: г. Уфа

Создавать темы Hobbit ® написал(а)
Вчера, в 15:53 (спустя 2 дня 18 часов)
Обновление:
  • Замена всех серий.
Профиль  ЛС 
Показать сообщения:     

Вы не можете начинать темы
Вы не можете отвечать на сообщения
Вы не можете редактировать свои сообщения
Вы не можете удалять свои сообщения
Вы не можете голосовать в опросах
Вы не можете прикреплять файлы к сообщениям
Вы не можете скачивать файлы

Текущее время: 18-Ноя 11:03
Часовой пояс: UTC + 5