Новобранец / Новичок / Салага / The Rookie / Сезон: 02 / Серии: 01-07 из 13 (Грег Биман, Тимоти Басфилд, Адам Дэвидсон) [2019 г., Драма, криминал, WEB-DL 1080p] MVO (LostFilm) + Original

Автор Сообщение
Hobbit ®

Стаж: 10 лет
Сообщений: 579
Откуда: г. Уфа

Создавать темы Hobbit ® написал(а)
24-Окт-2019 12:35
-Новобранец | The Rookie
2 сезон / Серии: 01-07 из 13
- Год выпуска: 2019
Страна: США
Жанр: Драма, криминал
Продолжительность: 7 из 13 серий по 00:43:00-Перевод: Профессиональный (многоголосый закадровый) LostFilm-Субтитры: Русские (Forced), Английские (SDH)- -Режиссёр: Грег Биман, Тимоти Басфилд, Адам Дэвидсон
Сценарий: Алекси Хоули, Inda Craig-Galvan, Fredrick Kotto
Композитор: Джордан Гань
В ролях: Шон Эшмор (Уэсли Эверс), Эрик Винтер (Тим Брэдфорт), Мелисса О’Нил (Люси Чен), Нэйтан Филлион (Джон Нолан), Амос Блэкмон (Бенсон), Сара Шахи (Джессика Руссо), Алисса Диас (Анджела Лопез), Титус Макин мл. (Джексон Уэст), Ричард Т. Джонс (Сержант Уэйд Грей), Эми Дэвидсон (Сюзанна Браун) и др.-Описание:-Звезда "Светлячка" и любимец публики Нэйтан Филлион возвращается на эфирное телевидение в потенциально триумфальном образе 40-летнего новичка Департамента полиции Лос-Анджелеса. Создатель криминального процедурала "Новобранец" Алекси Хоули писал главного героя специально под актера, с которым они сработались и подружились еще на съемках "Касла". Более того, новый сериал и по духу схож с восьмисезонным полицейским шоу - фигурой харизматичного протагониста и нестандартным взглядом на работу стражей закона (в "Касле" - от лица писателя, здесь - через призму немолодого мужчины, решившего начать все с нуля). Главная идея шоу: если у тебя еще есть порох в пороховницах, негоже прозябать на ненавистной работе и изо дня в день винить окружающих в своих бедах. Следуй за своей мечтой, даже если никто в нее не верит. Большая заслуга Алекси Хоули и Нэйтана Филлиона в том, что эту прописную истину они подают под фирменным комедийным соусом, помня, что главная функция телевидения - развлекать зрителей, а не поучать их.
Кардинально изменить свою жизнь не так-то просто, особенно если ты среднестатистический мужчина 40 лет, выросший в маленьком городке и никогда не хватавший звезд с неба. Джон Нолан (Нэйтан Филлион) таким себя и считал, пока не оказался в банке в момент ограбления. Попытавшись затеять конструктивный диалог с вооруженным бандитом, он, сам того не планируя, выставил себя настоящим героем в глазах миловидной дамочки и внезапно понял - вот что значит настоящая жизнь! Быть героем, защитником, спасителем или еще лучше - всем сразу. Нолан поступил на службу в полицию Лос-Анджелеса, где стал самым старым новичком из всех прибывших. Среди коллег он моментально превратился в объект насмешек со стикером "пни меня" на спине, а для начальника оказался источником проблем и бельмом на глазу. Напарница Нолана и вовсе боится выходить с ним на задание, переживая, что из-за отсутствия опыта Джон либо погибнет сам, либо подставит под пули ее. И лишь пара человек во всем департаменте задумываются о том, что богатый жизненный опыт, житейская мудрость новичка, его самоотверженная работа над собой и несгибаемая целеустремленность в конечном итоге помогут ему стать хорошим копом. Сможет ли Джон Нолан доказать коллегам и начальству, что служба в полиции - его истинное призвание, или постоянные насмешки и череда неудач все же отправят его на свалку?..
Сериал основан на реальных событиях.-

Техданные

  • Работа со звуком LostFilm и субтитрами: itunestv@eniahd
  • Качество: WEB-DL 1080p
  • Формат: MKV
  • Видео: H.264/AVC, 1920 x 1080 (1,778:1), 23,976 fps, ~9196 kbps, ~+ bit/pixel
  • Аудио#1: Russian: 48 kHz, E-AC3/DD+, 3/2 (L,C,R,l,r) + LFE ch, ~ 640 kbps avg
  • Аудио#2: Russian: 48 kHz, AC3, 3/2 (L,C,R,l,r) + LFE ch, ~ 640 kbps avg
  • Аудио#3: English: 48 kHz, E-AC3/DD+, 3/2 (L,C,R,l,r) + LFE ch, ~ 640 kbps avg

Список серий

01. Последствия | Impact
02. Ночной генерал | The Night General
03. Пари | The Bet
04. Воины и хранители | Warriors and Guardians
05. Жёстко, но с любовью | Tough Love
06. Убежище | Fallout
07. Защита | Safety

Скриншоты

MediaInfo

General
Unique ID : 26063828219852911925713943296277290092 (0x139BB5F1F7F6D20FEAA2C59F90151C6C)
Complete name : The.Rookie.S02E01.Impact.1080p.AMZN.WEB-DL.H.264.RUS.LF.DDP5.1-EniaHD.mkv
Format : Matroska
Format version : Version 4
File size : 3.32 GiB
Duration : 42 min 41 s
Overall bit rate : 11.1 Mb/s
Movie name : The Rookie, Season 2 / Impact
Track name/Position : 1
Track name/Total : 20
Description : Danger is ever-present as the officers of the Mid-Wilshire precinct grapple with the aftermath of a plotted attack on the city of Los Angeles, leaving Officer Bradford fighting for his life. Flash forward two weeks and the rookies receive the shocking results of their latest training exam, leaving one officer questioning what the future holds. Meanwhile, tension develops at home as Nolan and Lopez advance in their relationships with Jessica and Wesley.
Released date : 2019-09-30T02:00:00
Writing application : mkvmerge v40.0.0 ('Old Town Road + Pony') 64-bit
Writing library : libebml v1.3.9 + libmatroska v1.5.2
Cover : Yes
Attachments : small_cover.jpg / cover.jpg
Video
ID : 1
Format : AVC
Format/Info : Advanced Video Codec
Format profile : High@L4
Format settings : CABAC / 4 Ref Frames
Format settings, CABAC : Yes
Format settings, ReFrames : 4 frames
Codec ID : V_MPEG4/ISO/AVC
Duration : 42 min 41 s
Bit rate mode : Constant
Bit rate : 9 196 kb/s
Nominal bit rate : 10 000 kb/s
Width : 1 920 pixels
Height : 1 080 pixels
Display aspect ratio : 16:9
Frame rate mode : Constant
Frame rate : 23.976 (24000/1001) FPS
Color space : YUV
Chroma subsampling : 4:2:0
Bit depth : 8 bits
Scan type : Progressive
Bits/(Pixel*Frame) : 0.185
Stream size : 2.74 GiB (83%)
Language : English
Default : Yes
Forced : No
Color range : Limited
Color primaries : BT.709
Transfer characteristics : BT.709
Matrix coefficients : BT.709
Audio #1
ID : 2
Format : E-AC-3
Format/Info : Enhanced AC-3
Commercial name : Dolby Digital Plus
Codec ID : A_EAC3
Duration : 42 min 41 s
Bit rate mode : Constant
Bit rate : 640 kb/s
Channel(s) : 6 channels
Channel layout : L R C LFE Ls Rs
Sampling rate : 48.0 kHz
Frame rate : 31.250 FPS (1536 SPF)
Compression mode : Lossy
Stream size : 195 MiB (6%)
Title : E-AC3 5.1 @ 640kbps - MVO, Lostfilm
Language : Russian
Service kind : Complete Main
Default : Yes
Forced : No
Released date : 2019-10-01T18:10:04Z
Audio #2
ID : 3
Format : AC-3
Format/Info : Audio Coding 3
Commercial name : Dolby Digital
Codec ID : A_AC3
Duration : 42 min 41 s
Bit rate mode : Constant
Bit rate : 640 kb/s
Channel(s) : 6 channels
Channel layout : L R C LFE Ls Rs
Sampling rate : 48.0 kHz
Frame rate : 31.250 FPS (1536 SPF)
Bit depth : 16 bits
Compression mode : Lossy
Stream size : 195 MiB (6%)
Title : AC3 5.1 @ 640kbps - MVO, Lostfilm
Language : Russian
Service kind : Complete Main
Default : No
Forced : No
Released date : 2019-10-01T18:10:04Z
Audio #3
ID : 4
Format : E-AC-3
Format/Info : Enhanced AC-3
Commercial name : Dolby Digital Plus
Codec ID : A_EAC3
Duration : 42 min 41 s
Bit rate mode : Constant
Bit rate : 640 kb/s
Channel(s) : 6 channels
Channel layout : L R C LFE Ls Rs
Sampling rate : 48.0 kHz
Frame rate : 31.250 FPS (1536 SPF)
Compression mode : Lossy
Stream size : 195 MiB (6%)
Title : E-AC3 5.1 @ 640kbps - Original
Language : English
Service kind : Complete Main
Default : No
Forced : No
Text #1
ID : 5
Format : PGS
Muxing mode : zlib
Codec ID : S_HDMV/PGS
Codec ID/Info : Picture based subtitle format used on BDs/HD-DVDs
Duration : 30 s 864 ms
Bit rate : 406 kb/s
Count of elements : 50
Stream size : 1.49 MiB (0%)
Title : Forced
Language : Russian
Default : Yes
Forced : Yes
Text #2
ID : 6
Format : UTF-8
Codec ID : S_TEXT/UTF8
Codec ID/Info : UTF-8 Plain Text
Duration : 42 min 36 s
Bit rate : 96 b/s
Count of elements : 1094
Stream size : 30.0 KiB (0%)
Title : SDH
Language : English
Default : No
Forced : No
-


Последний раз редактировалось: Hobbit (Вчера, в 16:00), всего редактировалось 8 раз(а)
Профиль  ЛС 
Hobbit ®

Стаж: 10 лет
Сообщений: 579
Откуда: г. Уфа

Создавать темы Hobbit ® написал(а)
25-Окт-2019 13:01 (спустя 1 день)
Обновление:
  • Добавлена 4 серия "Воины и хранители | Warriors and Guardians".


Последний раз редактировалось: Hobbit (2019-11-06 17:10), всего редактировалось 2 раз(а)
Профиль  ЛС 
Hobbit ®

Стаж: 10 лет
Сообщений: 579
Откуда: г. Уфа

Создавать темы Hobbit ® написал(а)
30-Окт-2019 18:23 (спустя 5 дней)
Обновление:
  • Добавлена 5 серия "Жёстко, но с любовью | Tough Love".


Последний раз редактировалось: Hobbit (2019-11-06 17:10), всего редактировалось 2 раз(а)
Профиль  ЛС 
Hobbit ®

Стаж: 10 лет
Сообщений: 579
Откуда: г. Уфа

Создавать темы Hobbit ® написал(а)
05-Ноя-2019 11:17 (спустя 5 дней)
Обновление:
  • Замена 5 серии.
Профиль  ЛС 
Hobbit ®

Стаж: 10 лет
Сообщений: 579
Откуда: г. Уфа

Создавать темы Hobbit ® написал(а)
06-Ноя-2019 17:04 (спустя 1 день 5 часов)
Обновление:
  • Добавлена 6 серия "Убежище | Fallout".


Последний раз редактировалось: Hobbit (2019-11-08 00:24), всего редактировалось 1 раз
Профиль  ЛС 
ONiM

Стаж: 1 год 11 месяцев
Сообщений: 1

Создавать темы ONiM написал(а)
07-Ноя-2019 22:33 (спустя 1 день 5 часов)
АА а где 6 серия?
Профиль  ЛС 
kloud_komputer

Стаж: 10 лет
Сообщений: 110
Откуда: Стерлитамак

Создавать темы kloud_komputer написал(а)
13-Ноя-2019 19:07 (спустя 5 дней)
чот не скачивается
Профиль  ЛС 
Hobbit ®

Стаж: 10 лет
Сообщений: 579
Откуда: г. Уфа

Создавать темы Hobbit ® написал(а)
13-Ноя-2019 21:33 (спустя 2 часа 26 минут)
Обновление:
  • Добавлена 7 серия "Защита | Safety".
Профиль  ЛС 
kloud_komputer

Стаж: 10 лет
Сообщений: 110
Откуда: Стерлитамак

Создавать темы kloud_komputer написал(а)
16-Ноя-2019 15:43 (спустя 2 дня 18 часов)
скорости
Профиль  ЛС 
Hobbit ®

Стаж: 10 лет
Сообщений: 579
Откуда: г. Уфа

Создавать темы Hobbit ® написал(а)
Вчера, в 15:40 (спустя 23 часа)
Обновление:
  • Замена всех серий.
Профиль  ЛС 
Показать сообщения:     

Вы не можете начинать темы
Вы не можете отвечать на сообщения
Вы не можете редактировать свои сообщения
Вы не можете удалять свои сообщения
Вы не можете голосовать в опросах
Вы не можете прикреплять файлы к сообщениям
Вы не можете скачивать файлы

Текущее время: 18-Ноя 11:53
Часовой пояс: UTC + 5